osu file format v14

[General]
AudioFilename: Endless Story.mp3
AudioLeadIn: 1500
PreviewTime: 56949
Countdown: 0
SampleSet: None
StackLeniency: 0.7
Mode: 3
LetterboxInBreaks: 0
WidescreenStoryboard: 1

[Editor]
DistanceSpacing: 0.8
BeatDivisor: 4
GridSize: 32
TimelineZoom: 2

[Metadata]
Title:Anime OP/ED Fantasy
TitleUnicode:Anime OP/ED Fantasy
Artist:Various Artist
ArtistUnicode:Various Artist
Creator:bima fajar
Version:Endless Story [4k NM]
Source:
Tags:log horizon log horizon 2 bleach 11eyes black bullet C3 shikyubu romeo x juliet naruto attack on titan chaos dragon sekiryuu sen'eki accel world mahouka koukou no rettousei
BeatmapID:828881
BeatmapSetID:378584

[Difficulty]
HPDrainRate:6
CircleSize:4
OverallDifficulty:7
ApproachRate:5
SliderMultiplier:1.4
SliderTickRate:1

[Events]
//Background and Video events
0,0,"c3fear.jpg",0,0
//Break Periods
//Storyboard Layer 0 (Background)
//Storyboard Layer 1 (Fail)
//Storyboard Layer 2 (Pass)
//Storyboard Layer 3 (Foreground)
//Storyboard Sound Samples

[TimingPoints]
0,759.493670886076,4,2,0,100,1,0
13549,320.855614973262,4,2,0,100,1,0

[HitObjects]
64,192,379,1,0,0:0:0:0:
320,192,569,1,0,0:0:0:0:
192,192,949,128,0,1518:0:0:0:0:
448,192,1708,128,0,2278:0:0:0:0:
64,192,2468,128,0,3037:0:0:0:0:
320,192,3417,1,0,0:0:0:0:
192,192,3607,1,0,0:0:0:0:
448,192,3987,1,0,0:0:0:0:
64,192,4367,1,0,0:0:0:0:
192,192,4746,1,0,0:0:0:0:
320,192,5126,1,0,0:0:0:0:
192,192,5506,128,0,6075:0:0:0:0:
448,192,6265,1,0,0:0:0:0:
320,192,6645,1,0,0:0:0:0:
192,192,7025,128,0,7405:0:0:0:0:
448,192,7784,128,0,8164:0:0:0:0:
64,192,8544,128,0,8924:0:0:0:0:
320,192,9303,1,0,0:0:0:0:
192,192,9683,1,0,0:0:0:0:
448,192,10063,1,0,0:0:0:0:
320,192,10443,1,0,0:0:0:0:
192,192,10822,1,0,0:0:0:0:
64,192,11202,1,0,0:0:0:0:
320,192,11582,128,0,13709:0:0:0:0:
64,192,14190,1,0,0:0:0:0:
192,192,14190,128,0,14671:0:0:0:0:
320,192,14832,128,0,15233:0:0:0:0:
448,192,15474,128,0,15955:0:0:0:0:
320,192,16196,1,0,0:0:0:0:
192,192,16436,1,0,0:0:0:0:
64,192,16757,1,0,0:0:0:0:
320,192,17078,1,0,0:0:0:0:
192,192,17399,1,0,0:0:0:0:
448,192,17720,1,0,0:0:0:0:
320,192,18040,128,0,18361:0:0:0:0:
192,192,18682,1,0,0:0:0:0:
448,192,19003,1,0,0:0:0:0:
320,192,19324,128,0,19725:0:0:0:0:
192,192,19966,128,0,20286:0:0:0:0:
448,192,20607,128,0,21008:0:0:0:0:
320,192,21249,1,0,0:0:0:0:
64,192,21570,1,0,0:0:0:0:
448,192,21891,1,0,0:0:0:0:
192,192,22212,1,0,0:0:0:0:
320,192,22532,1,0,0:0:0:0:
448,192,22773,1,0,0:0:0:0:
320,192,22934,1,0,0:0:0:0:
192,192,23335,1,0,0:0:0:0:
64,192,23495,1,0,0:0:0:0:
320,192,23816,1,0,0:0:0:0:
64,192,23896,1,0,0:0:0:0:
320,192,24057,1,0,0:0:0:0:
64,192,24137,1,0,0:0:0:0:
320,192,24217,1,0,0:0:0:0:
192,192,24458,1,0,0:0:0:0:
448,192,24698,1,0,0:0:0:0:
320,192,24859,1,0,0:0:0:0:
320,192,25019,1,0,0:0:0:0:
320,192,25180,1,0,0:0:0:0:
320,192,25340,1,0,0:0:0:0:
320,192,25500,1,0,0:0:0:0:
64,192,25661,1,0,0:0:0:0:
320,192,25901,1,0,0:0:0:0:
192,192,26062,1,0,0:0:0:0:
448,192,26222,1,0,0:0:0:0:
320,192,26463,1,0,0:0:0:0:
192,192,26623,1,0,0:0:0:0:
448,192,26944,1,0,0:0:0:0:
320,192,27265,1,0,0:0:0:0:
192,192,27426,1,0,0:0:0:0:
64,192,27586,1,0,0:0:0:0:
192,192,27746,1,0,0:0:0:0:
320,192,27907,1,0,0:0:0:0:
448,192,28067,1,0,0:0:0:0:
320,192,28228,1,0,0:0:0:0:
192,192,28308,1,0,0:0:0:0:
448,192,28468,1,0,0:0:0:0:
320,192,28629,1,0,0:0:0:0:
64,192,28789,1,0,0:0:0:0:
320,192,28950,1,0,0:0:0:0:
64,192,29110,1,0,0:0:0:0:
192,192,29270,1,0,0:0:0:0:
448,192,29591,1,0,0:0:0:0:
192,192,29591,1,0,0:0:0:0:
320,192,29912,1,0,0:0:0:0:
64,192,30233,1,0,0:0:0:0:
320,192,30233,1,0,0:0:0:0:
320,192,30393,1,0,0:0:0:0:
64,192,30393,1,0,0:0:0:0:
320,192,30554,1,0,0:0:0:0:
64,192,30554,1,0,0:0:0:0:
448,192,30875,1,0,0:0:0:0:
192,192,31196,1,0,0:0:0:0:
320,192,31196,1,0,0:0:0:0:
320,192,31516,1,0,0:0:0:0:
192,192,31757,1,0,0:0:0:0:
320,192,31917,1,0,0:0:0:0:
64,192,32158,1,0,0:0:0:0:
320,192,32238,1,0,0:0:0:0:
320,192,32559,1,0,0:0:0:0:
64,192,32800,1,0,0:0:0:0:
448,192,32800,1,0,0:0:0:0:
320,192,33040,1,0,0:0:0:0:
192,192,33040,1,0,0:0:0:0:
448,192,33201,1,0,0:0:0:0:
64,192,33201,1,0,0:0:0:0:
64,192,33522,1,0,0:0:0:0:
320,192,33522,1,0,0:0:0:0:
64,192,33762,1,0,0:0:0:0:
448,192,34163,1,0,0:0:0:0:
192,192,34163,1,0,0:0:0:0:
320,192,34324,1,0,0:0:0:0:
192,192,34404,1,0,0:0:0:0:
320,192,34725,1,0,0:0:0:0:
64,192,35046,1,0,0:0:0:0:
320,192,35046,1,0,0:0:0:0:
448,192,35367,1,0,0:0:0:0:
192,192,35688,1,0,0:0:0:0:
448,192,35688,1,0,0:0:0:0:
320,192,36008,1,0,0:0:0:0:
320,192,36329,1,0,0:0:0:0:
64,192,36329,1,0,0:0:0:0:
320,192,36650,1,0,0:0:0:0:
192,192,36971,1,0,0:0:0:0:
448,192,36971,1,0,0:0:0:0:
320,192,37292,1,0,0:0:0:0:
448,192,37613,1,0,0:0:0:0:
64,192,37613,1,0,0:0:0:0:
320,192,37934,1,0,0:0:0:0:
64,192,38254,1,0,0:0:0:0:
320,192,38254,1,0,0:0:0:0:
320,192,38575,1,0,0:0:0:0:
192,192,38896,1,0,0:0:0:0:
320,192,38896,1,0,0:0:0:0:
320,192,39217,1,0,0:0:0:0:
192,192,39538,1,0,0:0:0:0:
320,192,39538,1,0,0:0:0:0:
320,192,39859,1,0,0:0:0:0:
64,192,40180,1,0,0:0:0:0:
320,192,40180,1,0,0:0:0:0:
320,192,40500,1,0,0:0:0:0:
448,192,40821,1,0,0:0:0:0:
192,192,40821,1,0,0:0:0:0:
448,192,41142,1,0,0:0:0:0:
448,192,41463,1,0,0:0:0:0:
64,192,41463,1,0,0:0:0:0:
320,192,41784,1,0,0:0:0:0:
192,192,42105,1,0,0:0:0:0:
320,192,42105,1,0,0:0:0:0:
64,192,42426,1,0,0:0:0:0:
192,192,42426,1,0,0:0:0:0:
192,192,42746,1,0,0:0:0:0:
320,192,42746,1,0,0:0:0:0:
320,192,43067,1,0,0:0:0:0:
448,192,43067,1,0,0:0:0:0:
320,192,43468,1,0,0:0:0:0:
448,192,43468,1,0,0:0:0:0:
320,192,43789,1,0,0:0:0:0:
448,192,43789,1,0,0:0:0:0:
320,192,44030,1,0,0:0:0:0:
448,192,44030,1,0,0:0:0:0:
448,192,44351,1,0,0:0:0:0:
320,192,44351,1,0,0:0:0:0:
320,192,44511,1,0,0:0:0:0:
448,192,44511,1,0,0:0:0:0:
320,192,44671,1,0,0:0:0:0:
448,192,44671,1,0,0:0:0:0:
320,192,45073,1,0,0:0:0:0:
320,192,45393,1,0,0:0:0:0:
192,192,45393,1,0,0:0:0:0:
448,192,45634,1,0,0:0:0:0:
192,192,45634,1,0,0:0:0:0:
320,192,45955,1,0,0:0:0:0:
64,192,46276,1,0,0:0:0:0:
320,192,46276,1,0,0:0:0:0:
320,192,46597,1,0,0:0:0:0:
192,192,46917,1,0,0:0:0:0:
448,192,46917,1,0,0:0:0:0:
320,192,47238,1,0,0:0:0:0:
64,192,47559,1,0,0:0:0:0:
192,192,47720,1,0,0:0:0:0:
320,192,47880,1,0,0:0:0:0:
448,192,48201,1,0,0:0:0:0:
320,192,48522,1,0,0:0:0:0:
320,192,48843,1,0,0:0:0:0:
192,192,48923,1,0,0:0:0:0:
320,192,49083,1,0,0:0:0:0:
192,192,49324,1,0,0:0:0:0:
320,192,49484,1,0,0:0:0:0:
192,192,49645,1,0,0:0:0:0:
320,192,49805,1,0,0:0:0:0:
64,192,49966,1,0,0:0:0:0:
192,192,50206,1,0,0:0:0:0:
320,192,50206,1,0,0:0:0:0:
320,192,50527,1,0,0:0:0:0:
320,192,50688,1,0,0:0:0:0:
192,192,50848,1,0,0:0:0:0:
320,192,50848,1,0,0:0:0:0:
320,192,51169,1,0,0:0:0:0:
320,192,51329,1,0,0:0:0:0:
192,192,51490,1,0,0:0:0:0:
320,192,51490,1,0,0:0:0:0:
320,192,51811,1,0,0:0:0:0:
320,192,51971,1,0,0:0:0:0:
192,192,52131,1,0,0:0:0:0:
320,192,52131,1,0,0:0:0:0:
64,192,52773,1,0,0:0:0:0:
192,192,53014,1,0,0:0:0:0:
320,192,53174,1,0,0:0:0:0:
448,192,53415,1,0,0:0:0:0:
320,192,53575,1,0,0:0:0:0:
192,192,53976,1,0,0:0:0:0:
320,192,54297,1,0,0:0:0:0:
64,192,54538,1,0,0:0:0:0:
320,192,54859,1,0,0:0:0:0:
64,192,55180,1,0,0:0:0:0:
192,192,55180,1,0,0:0:0:0:
192,192,55500,1,0,0:0:0:0:
320,192,55500,1,0,0:0:0:0:
320,192,55901,1,0,0:0:0:0:
448,192,55901,1,0,0:0:0:0:
320,192,56142,1,0,0:0:0:0:
448,192,56142,1,0,0:0:0:0:
448,192,56543,1,0,0:0:0:0:
320,192,56543,1,0,0:0:0:0:
320,192,56704,1,0,0:0:0:0:
448,192,56704,1,0,0:0:0:0:
320,192,56864,1,0,0:0:0:0:
448,192,56864,1,0,0:0:0:0:
64,192,57265,1,0,0:0:0:0:
192,192,57506,1,0,0:0:0:0:
192,192,57827,1,0,0:0:0:0:
320,192,57827,1,0,0:0:0:0:
448,192,58147,1,0,0:0:0:0:
64,192,58468,1,0,0:0:0:0:
320,192,58468,1,0,0:0:0:0:
320,192,58789,1,0,0:0:0:0:
192,192,59110,1,0,0:0:0:0:
448,192,59110,1,0,0:0:0:0:
320,192,59511,1,0,0:0:0:0:
64,192,59832,1,0,0:0:0:0:
448,192,59832,1,0,0:0:0:0:
320,192,60153,1,0,0:0:0:0:
64,192,60474,1,0,0:0:0:0:
192,192,60474,1,0,0:0:0:0:
192,192,60794,1,0,0:0:0:0:
320,192,60794,1,0,0:0:0:0:
320,192,61115,1,0,0:0:0:0:
448,192,61115,1,0,0:0:0:0:
320,192,61436,1,0,0:0:0:0:
448,192,61436,1,0,0:0:0:0:
320,192,61677,1,0,0:0:0:0:
448,192,61677,1,0,0:0:0:0:
448,192,62319,1,0,0:0:0:0:
192,192,62319,1,0,0:0:0:0:
320,192,62639,1,0,0:0:0:0:
320,192,62960,1,0,0:0:0:0:
64,192,62960,1,0,0:0:0:0:
448,192,63682,1,0,0:0:0:0:
320,192,63923,1,0,0:0:0:0:
192,192,64244,1,0,0:0:0:0:
64,192,64565,1,0,0:0:0:0:
192,192,64885,1,0,0:0:0:0:
64,192,65206,1,0,0:0:0:0:
64,192,65527,1,0,0:0:0:0:
320,192,65607,1,0,0:0:0:0:
448,192,66089,1,0,0:0:0:0:
320,192,66409,1,0,0:0:0:0:
192,192,66490,1,0,0:0:0:0:
192,192,66650,1,0,0:0:0:0:
448,192,66650,1,0,0:0:0:0:
320,192,67051,1,0,0:0:0:0:
64,192,67212,1,0,0:0:0:0:
448,192,67212,1,0,0:0:0:0:
320,192,67532,1,0,0:0:0:0:
64,192,67773,1,0,0:0:0:0:
192,192,68094,1,0,0:0:0:0:
320,192,68094,1,0,0:0:0:0:
448,192,68736,1,0,0:0:0:0:
192,192,68736,1,0,0:0:0:0:
320,192,69057,1,0,0:0:0:0:
320,192,69377,1,0,0:0:0:0:
64,192,69377,1,0,0:0:0:0:
64,192,70019,1,0,0:0:0:0:
320,192,70019,1,0,0:0:0:0:
448,192,70340,1,0,0:0:0:0:
192,192,70340,1,0,0:0:0:0:
64,192,70661,1,0,0:0:0:0:
320,192,70661,1,0,0:0:0:0:
448,192,70982,1,0,0:0:0:0:
192,192,70982,1,0,0:0:0:0:
64,192,71303,1,0,0:0:0:0:
320,192,71303,1,0,0:0:0:0:
192,192,71623,1,0,0:0:0:0:
448,192,71623,1,0,0:0:0:0:
64,192,71944,1,0,0:0:0:0:
448,192,71944,1,0,0:0:0:0:
64,192,72586,1,0,0:0:0:0:
320,192,72586,1,0,0:0:0:0:
448,192,72907,1,0,0:0:0:0:
192,192,72907,1,0,0:0:0:0:
64,192,73228,1,0,0:0:0:0:
448,192,73228,1,0,0:0:0:0:
64,192,73950,1,0,0:0:0:0:
448,192,73950,1,0,0:0:0:0:
64,192,74190,1,0,0:0:0:0:
320,192,74190,1,0,0:0:0:0:
192,192,74511,1,0,0:0:0:0:
448,192,74511,1,0,0:0:0:0:
64,192,74832,1,0,0:0:0:0:
320,192,74832,1,0,0:0:0:0:
192,192,75153,1,0,0:0:0:0:
448,192,75153,1,0,0:0:0:0:
64,192,75474,1,0,0:0:0:0:
320,192,75474,1,0,0:0:0:0:
64,192,75794,1,0,0:0:0:0:
448,192,75794,1,0,0:0:0:0:
64,192,76115,1,0,0:0:0:0:
448,192,76115,1,0,0:0:0:0:
64,192,76436,1,0,0:0:0:0:
448,192,76436,1,0,0:0:0:0:
64,192,76757,1,0,0:0:0:0:
448,192,76757,1,0,0:0:0:0:
448,192,76998,1,0,0:0:0:0:
64,192,77078,1,0,0:0:0:0:
448,192,77319,1,0,0:0:0:0:
64,192,77319,1,0,0:0:0:0:
448,192,77639,1,0,0:0:0:0:
64,192,77639,1,0,0:0:0:0:
64,192,77960,1,0,0:0:0:0:
448,192,77960,1,0,0:0:0:0:
64,192,78361,1,0,0:0:0:0:
320,192,78361,1,0,0:0:0:0:
320,192,78682,1,0,0:0:0:0:
192,192,79003,1,0,0:0:0:0:
448,192,79003,1,0,0:0:0:0:
320,192,79324,1,0,0:0:0:0:
192,192,79645,1,0,0:0:0:0:
448,192,79645,1,0,0:0:0:0:
448,192,79966,1,0,0:0:0:0:
64,192,80286,1,0,0:0:0:0:
320,192,80286,1,0,0:0:0:0:
448,192,80607,1,0,0:0:0:0:
192,192,80928,1,0,0:0:0:0:
320,192,80928,1,0,0:0:0:0:
320,192,81249,1,0,0:0:0:0:
320,192,81570,1,0,0:0:0:0:
192,192,81570,1,0,0:0:0:0:
320,192,81891,1,0,0:0:0:0:
192,192,82212,1,0,0:0:0:0:
320,192,82212,1,0,0:0:0:0:
320,192,82532,1,0,0:0:0:0:
448,192,82853,1,0,0:0:0:0:
64,192,82853,1,0,0:0:0:0:
320,192,83174,1,0,0:0:0:0:
192,192,83495,128,0,83896:0:0:0:0:
320,192,84137,128,0,84538:0:0:0:0:
64,192,84778,128,0,85180:0:0:0:0:
448,192,85420,1,0,0:0:0:0:
192,192,85741,1,0,0:0:0:0:
320,192,86062,128,0,87024:0:0:0:0:
192,192,87265,128,0,89190:0:0:0:0:
